Details for this torrent 


Deadliest Catch - Season 1 - 5 Disc Set - DVD-R [RLG]
Type:
Video > TV shows
Files:
105
Size:
17.84 GB

Spoken language(s):
English
Texted language(s):
English

Uploaded:
Feb 14, 2016
By:
RedLegsGreaves



[IMG]http://lookpic.com/O/i2/250/VwnJsOIZ.jpeg[/IMG]


[b]INFO[/b]
 
http://www.imdb.com/title/tt0446809/

Video
ID                          : 224 (0xE0)
Format                      : MPEG Video
Format version              : Version 2
Format profile              : Main@Main
Format settings, BVOP       : Yes
Format settings, Matrix     : Custom
Format settings, GOP        : Variable
Format settings, picture st : Frame
Duration                    : 24mn 57s
Bit rate mode               : Variable
Bit rate                    : 5 428 Kbps
Maximum bit rate            : 7 500 Kbps
Width                       : 720 pixels
Height                      : 480 pixels
Display aspect ratio        : 4:3
Frame rate                  : 29.970 (30000/1001) fps
Standard                    : NTSC
Color space                 : YUV
Chroma subsampling          : 4:2:0
Bit depth                   : 8 bits
Scan type                   : Interlaced
Scan order                  : Top Field First
Compression mode            : Lossy
Bits/(Pixel*Frame)          : 0.524
Time code of first frame    : 00:59:59;00
Time code source            : Group of pictures header
GOP, Open/Closed            : Closed
Stream size                 : 969 MiB (95%)

Audio
ID                          : 189 (0xBD)-128 (0x80)
Format                      : AC-3
Format/Info                 : Audio Coding 3
Mode extension              : CM (complete main)
Format settings, Endianness : Big
Muxing mode                 : DVD-Video
Duration                    : 24mn 57s
Bit rate mode               : Constant
Bit rate                    : 192 Kbps
Channel(s)                  : 2 channels
Channel positions           : Front: L R
Sampling rate               : 48.0 KHz
Frame rate                  : 31.250 fps (1536 spf)
Compression mode            : Lossy
Stream size                 : 34.3 MiB (3%)

[b]Plot[/b]

A documentary series chronicling the real-life high-sea adventures of the Alaskan crab fishermen. This is the most deadly profession in the world.

[color=red][b]For Newer Users[/b][/color]
Simply Drag downloaded folder to your Media Player. This is a NTSC DVD
This is ripped so you would have best quality, menu, bonus/special feature, language options etc
Note: DVDs may not have have all* featues 

[b]Screenshots[/b]

[IMG]http://lookpic.com/O/i2/671/4uj5HSjd.jpeg[/IMG][IMG]http://lookpic.com/O/i2/238/3QUi3pap.jpeg[/IMG]
[IMG]http://lookpic.com/O/i2/534/5gI7ytBT.jpeg[/IMG]
[IMG]http://lookpic.com/O/i2/874/IfNY9O7v.jpeg[/IMG]
[IMG]http://lookpic.com/O/i2/198/vAK8nMis.jpeg[/IMG]

[IMG]http://i.imgur.com/fLhfPWl.jpg[/img]