Details for this torrent 


Deadliest Catch - Second Season - 3 Disc Set - DVD-R [RLG]
Type:
Video > TV shows
Files:
105
Size:
22.21 GB

Spoken language(s):
English
Texted language(s):
English

Uploaded:
Feb 15, 2016
By:
RedLegsGreaves



[IMG]http://lookpic.com/O/i2/41/cbdZoLCS.jpeg[/IMG]


[b]INFO[/b]
 
http://www.imdb.com/title/tt0446809/

Video
ID                          : 224 (0xE0)
Format                      : MPEG Video
Format version              : Version 2
Format profile              : Main@Main
Format settings, BVOP       : Yes
Format settings, Matrix     : Custom
Format settings, GOP        : Variable
Format settings, picture st : Frame
Duration                    : 22mn 50s
Bit rate mode               : Variable
Bit rate                    : 5 917 Kbps
Maximum bit rate            : 9 800 Kbps
Width                       : 720 pixels
Height                      : 480 pixels
Display aspect ratio        : 4:3
Frame rate                  : 29.970 (30000/1001) fps
Standard                    : NTSC
Color space                 : YUV
Chroma subsampling          : 4:2:0
Bit depth                   : 8 bits
Scan type                   : Interlaced
Scan order                  : Top Field First
Compression mode            : Lossy
Bits/(Pixel*Frame)          : 0.571
Time code of first frame    : 01:42:43;00
Time code source            : Group of pictures header
GOP, Open/Closed            : Open
GOP, Open/Closed of first f : Closed
Stream size                 : 967 MiB (94%)

Audio
ID                          : 189 (0xBD)-128 (0x80)
Format                      : AC-3
Format/Info                 : Audio Coding 3
Mode extension              : CM (complete main)
Format settings, Endianness : Big
Muxing mode                 : DVD-Video
Duration                    : 22mn 50s
Bit rate mode               : Constant
Bit rate                    : 224 Kbps
Channel(s)                  : 2 channels
Channel positions           : Front: L R
Sampling rate               : 48.0 KHz
Frame rate                  : 31.250 fps (1536 spf)
Compression mode            : Lossy
Stream size                 : 36.6 MiB (4%)

[b]Plot[/b]

A documentary series chronicling the real-life high-sea adventures of the Alaskan crab fishermen. This is the most deadly profession in the world.

[color=red][b]For Newer Users[/b][/color]
Simply Drag downloaded folder to your Media Player. This is a NTSC DVD
This is ripped so you would have best quality, menu, bonus/special feature, language options etc
Note: DVDs may not have have all* featues 

[b]Screenshots[/b]

[IMG]http://lookpic.com/O/i2/1813/118hWHss.jpeg[/IMG]
[IMG]http://lookpic.com/O/i2/1039/Bu5e8YpQ.jpeg[/IMG]
[IMG]http://lookpic.com/O/i2/1501/S5zS92b3.jpeg[/IMG]
[IMG]http://lookpic.com/O/i2/1088/kwQ2hzUt.jpeg[/IMG][IMG]http://lookpic.com/O/i2/97/QVzmlThq.jpeg[/IMG]

[img]http://i.imgur.com/fLhfPWl.jpg[/img]