Details for this torrent 


Deadliest Catch - Season 3 - 3 Disc Set - DVD-R [RLG]
Type:
Video > TV shows
Files:
110
Size:
21.9 GB

Spoken language(s):
English
Texted language(s):
English

Uploaded:
Feb 24, 2016
By:
RedLegsGreaves



[IMG]http://lookpic.com/O/i2/310/jppIiGz.jpeg[/IMG]

[b]INFO[/b]
 
http://www.imdb.com/title/tt0446809/

Video
ID                          : 224 (0xE0)
Format                      : MPEG Video
Format version              : Version 2
Format profile              : [email protected]
Format settings, BVOP       : Yes
Format settings, Matrix     : Custom
Format settings, GOP        : M=3, N=15
Format settings, picture st : Frame
Duration                    : 31s 31ms
Bit rate mode               : Variable
Bit rate                    : 4 713 Kbps
Maximum bit rate            : 8 200 Kbps
Width                       : 720 pixels
Height                      : 480 pixels
Display aspect ratio        : 16:9
Frame rate                  : 29.970 (30000/1001) fps
Standard                    : NTSC
Color space                 : YUV
Chroma subsampling          : 4:2:0
Bit depth                   : 8 bits
Scan type                   : Interlaced
Scan order                  : Top Field First
Compression mode            : Lossy
Bits/(Pixel*Frame)          : 0.455
Time code of first frame    : 01:01:29;00
Time code source            : Group of pictures header
GOP, Open/Closed            : Closed
Stream size                 : 17.4 MiB (94%)

Audio
ID                          : 189 (0xBD)-128 (0x80)
Format                      : AC-3
Format/Info                 : Audio Coding 3
Mode extension              : CM (complete main)
Format settings, Endianness : Big
Muxing mode                 : DVD-Video
Duration                    : 31s 40ms
Bit rate mode               : Constant
Bit rate                    : 224 Kbps
Channel(s)                  : 2 channels
Channel positions           : Front: L R
Sampling rate               : 48.0 KHz
Frame rate                  : 31.250 fps (1536 spf)
Compression mode            : Lossy
Stream size                 : 849 KiB (4%)
[b]Plot[/b]

A documentary series chronicling the real-life high-sea adventures of the Alaskan crab fishermen. This is the most deadly profession in the world.

[color=red][b]For Newer Users[/b][/color]
Simply Drag downloaded folder to your Media Player. This is a NTSC DVD
This is ripped so you would have best quality, menu, bonus/special feature, language options etc
Note: DVDs may not have have all* featues 

[b]Screenshots[/b]

[IMG]http://lookpic.com/O/i2/801/NM79pGWL.jpeg[/IMG]
[IMG]http://lookpic.com/O/i2/1836/jJ8RhwpU.jpeg[/IMG]
[IMG]http://lookpic.com/O/i2/1936/ikLt7gPO.jpeg[/IMG]
[IMG]http://lookpic.com/O/i2/1019/1GhJPldJ.jpeg[/IMG][IMG]http://lookpic.com/O/i2/196/2o1Gggmf.jpeg[/IMG]

[img]http://i.imgur.com/fLhfPWl.jpg[/img]