Details for this torrent 


Stille hjerte [Silent Heart] 2014 720p BRRip x264 titler
Type:
Video > HD - Movies
Files:
5
Size:
963.64 MB

Tag(s):
Stille hjerte Silent Heart Stille hjerte 2014 Silent Heart 2014 Silent Heart Bille August Paprika Steen Pilou Asbæk

Uploaded:
Feb 14, 2018
By:
movieZ.freak



SOURCE: Stille hjerte 2014 720p BluRay DTS5.1 x264 - SbR

 
http://www.imdb.com/title/tt3335048/
 
http://www.rottentomatoes.com/m/stille_hjerte/
 
http://en.wikipedia.org/wiki/Silent_Heart


- SAMPLE: Yes

- SUBTITLE: English

- LANGUAGE / AUDIO: Danish


SCREENSHOTS:
------------------- 
http://imgur.com/a/F1UVV


DIRECTOR: Bille August
 
http://www.imdb.com/name/nm0000806/


CAST: Ghita Nørby, Paprika Steen, Danica Curcic, Morten Grunwald, Pilou Asbæk, Jens Albinus, Vigga Bro, Oskar Sælan Halskov, ...


PLOT:
-----------
Three generations of a family coming together over a weekend. A sick mother's wish to die before her disease worsens gets harder to handle as old conflicts come to the surface. 
************************************

- Duration: 1h 38min

- Nominal bit rate: 1242 kb/s

- Res: 1280 x 538

- AR: 2.40:1

- FPS: 24.000 FPS

- Audio: AAC, 2 channels, 128 Kbps

************************************

General
------------
Format : Matroska
Format version : Version 4 / Version 2
File size : 950 MiB
Duration : 1h 38min
Overall bit rate : 1351 kb/s
Encoded date : UTC 2018-02-14 19:33:53
Writing application : mkvmerge v20.0.0 ('I Am The Sun') 64-bit
Writing library : libebml v1.3.5 + libmatroska v1.4.8

Video
------------
Format : AVC
Format/Info : Advanced Video Codec
Format profile : [email protected]
Format settings, CABAC : Yes
Format settings, ReFrames : 5 frames
Codec ID : V_MPEG4/ISO/AVC
Duration : 1h 38min
Bit rate : 1242 kb/s
Width : 1280 pixels
Height : 538 pixels
Display aspect ratio : 2.40:1
Frame rate mode : Constant
Frame rate : 24.000 FPS
Color space : YUV
Chroma subsampling : 4:2:0
Bit depth : 8 bits
Scan type : Progressive
Bits/(Pixel*Frame) : 0.075
Stream size : 859 MiB (90%)
Writing library : x264 core 142
Encoding settings : cabac=1 / ref=5
Default : Yes
Forced : No

Audio
--------
Format : AAC
Format/Info : Advanced Audio Codec
Format profile : LC
Codec ID : A_AAC
Duration : 1h 38min
Bit rate : 128 kb/s
Channel(s) : 2 channels
Channel positions : Front: L R
Sampling rate : 48.0 kHz
Compression mode : Lossy
Stream size : 90.0 MiB (9%)
Title : Stereo
Language : Danish
Default : Yes
Forced : No