Details for this torrent 


Bilal A New Breed of Hero 2018 1080p WEB-DL DD 5.1 x264 [MW]
Type:
Video > HD - Movies
Files:
1
Size:
1.97 GB

Tag(s):
Animation Action Adventure

Uploaded:
Jul 10, 2018
By:
MFreaky



http://pichub.site/image/a4Lwr
 
http://pichub.site/image/a4oTQ
 
http://pichub.site/image/a4r0k
 
http://pichub.site/image/a45ud



General
Format : Matroska
Format version : Version 4 / Version 2
File size : 1.97 GiB
Duration : 1 h 49 min
Overall bit rate : 2 576 kb/s

Video
ID : 1
Format : AVC
Format/Info : Advanced Video Codec
Format profile : High@L4.1
Format settings : CABAC / 4 Ref Frames
Format settings, CABAC : Yes
Format settings, RefFrames : 4 frames
Codec ID : V_MPEG4/ISO/AVC
Duration : 1 h 49 min
Bit rate : 2 200 kb/s
Width : 1 918 pixels
Height : 802 pixels
Display aspect ratio : 2.40:1
Frame rate mode : Constant
Frame rate : 23.976 (24000/1001) FPS
Color space : YUV
Chroma subsampling : 4:2:0
Bit depth : 8 bits
Scan type : Progressive
Bits/(Pixel*Frame) : 0.060
Stream size : 1.67 GiB (85%)
Writing library : x264 core 155 r2901 7d0ff22
Default : Yes
Forced : No

Audio
ID : 2
Format : AC-3
Format/Info : Audio Coding 3
Codec ID : A_AC3
Duration : 1 h 49 min
Bit rate mode : Constant
Bit rate : 384 kb/s
Channel(s) : 6 channels
Channel positions : Front: L C R, Side: L R, LFE
Sampling rate : 48.0 kHz
Frame rate : 31.250 FPS (1536 SPF)
Bit depth : 16 bits
Compression mode : Lossy
Stream size : 301 MiB (15%)
Language : English
Service kind : Complete Main
Default : Yes
Forced : No

Text
ID : 3
Format : UTF-8
Codec ID : S_TEXT/UTF8
Codec ID/Info : UTF-8 Plain Text
Duration : 1 h 47 min
Bit rate : 34 b/s
Count of elements : 1091
Stream size : 26.8 KiB (0%)
Language : English
Default : Yes
Forced : No

Menu
00:00:00.000 : en:Chapter 1
00:20:25.391 : en:Chapter 2
00:41:26.317 : en:Chapter 3
01:06:03.918 : en:Chapter 4
01:22:47.921 : en:Chapter 5
01:45:20.314 : en:Chapter 6