Details for this torrent 


Vodka Diaries 2018 Hindi 720p WEB-DL x264 ESub [MW]
Type:
Video > HD - Movies
Files:
1
Size:
833.97 MB

Tag(s):
Mystery Thriller

Uploaded:
Jul 11, 2018
By:
MFreaky



http://pichub.site/image/afhZd
 
http://pichub.site/image/afzAu
 
http://pichub.site/image/af86R
 
http://pichub.site/image/afB4s
 
http://pichub.site/image/afKCB

General
Format : Matroska
Format version : Version 4 / Version 2
File size : 834 MiB
Duration : 1 h 52 min
Overall bit rate : 1 034 kb/s

Video
ID : 1
Format : AVC
Format/Info : Advanced Video Codec
Format profile : High@L4.1
Format settings : CABAC / 5 Ref Frames
Format settings, CABAC : Yes
Format settings, RefFrames : 5 frames
Codec ID : V_MPEG4/ISO/AVC
Duration : 1 h 52 min
Bit rate : 900 kb/s
Width : 1 280 pixels
Height : 480 pixels
Display aspect ratio : 2.667
Frame rate mode : Constant
Frame rate : 23.976 (23976/1000) FPS
Color space : YUV
Chroma subsampling : 4:2:0
Bit depth : 8 bits
Scan type : Progressive
Bits/(Pixel*Frame) : 0.061
Stream size : 729 MiB (87%)
Writing library : x264 core 155 r2901 7d0ff22
Default : Yes
Forced : No

Audio
ID : 2
Format : AAC
Format/Info : Advanced Audio Codec
Format profile : LC
Codec ID : A_AAC-2
Duration : 1 h 52 min
Bit rate : 128 kb/s
Channel(s) : 2 channels
Channel positions : Front: L R
Sampling rate : 48.0 kHz
Frame rate : 46.875 FPS (1024 SPF)
Compression mode : Lossy
Stream size : 103 MiB (12%)
Language : Hindi
Default : Yes
Forced : No

Text
ID : 3
Format : UTF-8
Codec ID : S_TEXT/UTF8
Codec ID/Info : UTF-8 Plain Text
Duration : 1 h 50 min
Bit rate : 43 b/s
Count of elements : 1187
Stream size : 35.4 KiB (0%)
Default : Yes
Forced : No