Details for this torrent 


Future World 2018 1080p BluRay x264 DTS [MW]
Type:
Video > HD - Movies
Files:
1
Size:
2.85 GB

Tag(s):
Sci-Fi

Uploaded:
Jul 11, 2018
By:
MFreaky

Seeders:
128
Leechers:
46
Comments:
0


http://pichub.site/image/YpWoD
 
http://pichub.site/image/YpbWZ
 
http://pichub.site/image/YpjVg
 
http://pichub.site/image/Y241X
 
http://pichub.site/image/Y2JR8

General
Format : Matroska
Format version : Version 4 / Version 2
File size : 2.85 GiB
Duration : 1 h 28 min
Overall bit rate : 4 621 kb/s

Video
ID : 1
Format : AVC
Format/Info : Advanced Video Codec
Format profile : High@L4.1
Format settings : CABAC / 5 Ref Frames
Format settings, CABAC : Yes
Format settings, RefFrames : 5 frames
Codec ID : V_MPEG4/ISO/AVC
Duration : 1 h 28 min
Bit rate : 3 200 kb/s
Width : 1 920 pixels
Height : 804 pixels
Display aspect ratio : 2.40:1
Frame rate mode : Constant
Frame rate : 23.976 (24000/1001) FPS
Color space : YUV
Chroma subsampling : 4:2:0
Bit depth : 8 bits
Scan type : Progressive
Bits/(Pixel*Frame) : 0.086
Stream size : 1.91 GiB (67%)
Writing library : x264 core 155 r2901 7d0ff22
Default : Yes
Forced : No

Audio
ID : 3
Format : DTS
Format/Info : Digital Theater Systems
Codec ID : A_DTS
Duration : 1 h 28 min
Bit rate mode : Constant
Bit rate : 1 509 kb/s
Channel(s) : 6 channels
Channel positions : Front: L C R, Side: L R, LFE
Sampling rate : 48.0 kHz
Frame rate : 93.750 FPS (512 SPF)
Bit depth : 24 bits
Compression mode : Lossy
Stream size : 951 MiB (33%)
Language : English
Default : Yes
Forced : No

Text
ID : 2
Format : VobSub
Muxing mode : zlib
Codec ID : S_VOBSUB
Codec ID/Info : Picture based subtitle format used on DVDs
Duration : 1 h 23 min
Bit rate : 3 663 b/s
Count of elements : 797
Stream size : 2.19 MiB (0%)
Language : English
Default : Yes
Forced : No