Details for this torrent 


Gotti 2018 1080p WEB-DL DD 5.1 x264 [MW]
Type:
Video > HD - Movies
Files:
1
Size:
1.89 GB

Tag(s):
Biography Crime Drama

Uploaded:
Jul 11, 2018
By:
MFreaky

Seeders:
154
Leechers:
51
Comments:
0


http://pichub.site/image/YmRr0
 
http://pichub.site/image/YmSWV
 
http://pichub.site/image/YmE7T
 
http://pichub.site/image/YmdNN
 
http://pichub.site/image/Ym71D

General
Format : Matroska
Format version : Version 4 / Version 2
File size : 1.89 GiB
Duration : 1 h 49 min
Overall bit rate : 2 474 kb/s

Video
ID : 1
Format : AVC
Format/Info : Advanced Video Codec
Format profile : High@L4.1
Format settings : CABAC / 4 Ref Frames
Format settings, CABAC : Yes
Format settings, RefFrames : 4 frames
Codec ID : V_MPEG4/ISO/AVC
Duration : 1 h 49 min
Bit rate : 2 088 kb/s
Nominal bit rate : 2 200 kb/s
Width : 1 916 pixels
Height : 800 pixels
Display aspect ratio : 2.40:1
Frame rate mode : Constant
Frame rate : 23.976 (24000/1001) FPS
Color space : YUV
Chroma subsampling : 4:2:0
Bit depth : 8 bits
Scan type : Progressive
Bits/(Pixel*Frame) : 0.057
Stream size : 1.60 GiB (84%)
Writing library : x264 core 155 r2901 7d0ff22
Default : Yes
Forced : No

Audio
ID : 2
Format : AC-3
Format/Info : Audio Coding 3
Codec ID : A_AC3
Duration : 1 h 49 min
Bit rate mode : Constant
Bit rate : 384 kb/s
Channel(s) : 6 channels
Channel positions : Front: L C R, Side: L R, LFE
Sampling rate : 48.0 kHz
Frame rate : 31.250 FPS (1536 SPF)
Bit depth : 16 bits
Compression mode : Lossy
Stream size : 301 MiB (16%)
Language : English
Service kind : Complete Main
Default : Yes
Forced : No