Details for this torrent 


102 Not Out 2018 Hindi 1080p WEB-DL x264 ESub [MW]
Type:
Video > HD - Movies
Files:
1
Size:
1.78 GB

Tag(s):
Comedy Drama

Uploaded:
Jul 11, 2018
By:
MFreaky

Seeders:
33
Leechers:
92
Comments:
0


http://pichub.site/image/afsOX
 
http://pichub.site/image/afZPJ
 
http://pichub.site/image/af9f5
 
http://pichub.site/image/afHhh
 
http://pichub.site/image/afTrj


General
Format : Matroska
Format version : Version 4 / Version 2
File size : 1.78 GiB
Duration : 1 h 43 min
Overall bit rate : 2 453 kb/s

Video
ID : 1
Format : AVC
Format/Info : Advanced Video Codec
Format profile : High@L4.1
Format settings : CABAC / 5 Ref Frames
Format settings, CABAC : Yes
Format settings, RefFrames : 5 frames
Codec ID : V_MPEG4/ISO/AVC
Duration : 1 h 43 min
Bit rate : 2 200 kb/s
Width : 1 920 pixels
Height : 814 pixels
Display aspect ratio : 2.35:1
Frame rate mode : Constant
Frame rate : 23.976 (23976/1000) FPS
Color space : YUV
Chroma subsampling : 4:2:0
Bit depth : 8 bits
Scan type : Progressive
Bits/(Pixel*Frame) : 0.059
Stream size : 1.61 GiB (91%)
Writing library : x264 core 155 r2901 7d0ff22
Default : Yes
Forced : No

Audio
ID : 3
Format : AAC
Format/Info : Advanced Audio Codec
Format profile : LC
Codec ID : A_AAC-2
Duration : 1 h 43 min
Bit rate : 224 kb/s
Channel(s) : 2 channels
Channel positions : Front: L R
Sampling rate : 48.0 kHz
Frame rate : 46.875 FPS (1024 SPF)
Compression mode : Lossy
Stream size : 166 MiB (9%)
Language : Hindi
Default : Yes
Forced : No

Text
ID : 2
Format : UTF-8
Codec ID : S_TEXT/UTF8
Codec ID/Info : UTF-8 Plain Text
Duration : 1 h 33 min
Bit rate : 61 b/s
Count of elements : 1369
Stream size : 42.5 KiB (0%)
Default : Yes
Forced : No