Details for this torrent 


The.Noite.2018.10.09.720p.WEB-DL.x264-Skylane77
Type:
Video > HD - TV shows
Files:
1
Size:
607.69 MB

Spoken language(s):
Portugese
Texted language(s):
Portugese

Uploaded:
Oct 11, 2018
By:
beechbaron77



MC Koringa e Ananda
 
http://postimg.cc/7fQgMvrs

--
Video
ID: 1
Format: AVC
Format/Info: Advanced Video Codec
Format profile: High@L4.1
Format settings: CABAC / 9 Ref Frames
Format settings, CABAC: Yes
Format settings, ReFrames: 9 frames
Codec ID: avc1
Codec ID/Info: Advanced Video Coding
Duration: 56 min 7 s
Bit rate: 1 377 kb/s
Width: 1 280 pixels
Height: 720 pixels
Display aspect ratio: 16:9
Frame rate mode: Variable
Frame rate: 29.970 FPS
Minimum frame rate: 15.000 FPS
Maximum frame rate: 30.000 FPS
Color space: YUV
Chroma subsampling: 4:2:0
Bit depth: 8 bits
Scan type: Progressive
Bits/(Pixel*Frame): 0.050
Stream size: 553 MiB (91%)
Writing library: x264 core 155 r2917 0a84d98
Encoding settings: cabac=1 / ref=9 / deblock=1:0:0 / analyse=0x3:0x133 / me=umh / subme=10 / psy=1 / psy_rd=1.00:0.00 / mixed_ref=1 / me_range=24 / chroma_me=1 / trellis=2 / 8x8dct=1 / cqm=0 / deadzone=21,11 / fast_pskip=1 / chroma_qp_offset=-2 / threads=12 / lookahead_threads=2 / sliced_threads=0 / nr=0 / decimate=1 / interlaced=0 / bluray_compat=0 / constrained_intra=0 / bframes=8 / b_pyramid=2 / b_adapt=2 / b_bias=0 / direct=3 / weightb=1 / open_gop=0 / weightp=2 / keyint=250 / keyint_min=25 / scenecut=40 / intra_refresh=0 / rc_lookahead=60 / rc=crf / mbtree=1 / crf=25.0 / qcomp=0.60 / qpmin=0 / qpmax=69 / qpstep=4 / ip_ratio=1.40 / aq=1:1.00
Codec configuration box: avcC

Audio
ID: 2
Format: AAC LC
Format/Info: Advanced Audio Codec Low Complexity
Codec ID: mp4a-40-2
Duration: 56 min 7 s
Bit rate mode: Variable
Bit rate: 128 kb/s
Maximum bit rate: 150 kb/s
Channel(s): 2 channels
Channel layout: L R
Sampling rate: 48.0 kHz
Frame rate: 46.875 FPS (1024 SPF)
Compression mode: Lossy
Stream size: 51.6 MiB (8%)
Default: Yes
Alternate group: 1