Details for this torrent 


Reboot: The Guardian Code (series 1 and 2)(avi)
Type:
Video > TV shows
Files:
20
Size:
3.53 GB

Info:
IMDB
Spoken language(s):
English
Texted language(s):
English
Tag(s):
Science-Fiction Action Adventure Comedy

Uploaded:
Oct 11, 2018
By:
moronorless



Reboot: The Guardian Code (series 1 and 2)
 
http://www.thetvdb.com/series/reboot-the-guardian-code

ReBoot: the Guardian Code is an adventure series about four teens (Austin, Parker, Trey, and Tamra) who discover that they're next-gen Guardians with a mission to save the world, by defending it in cyberspace. The Internet revolutionized the world, but it also left it vulnerable to attack. With the help of VERA, the last surviving cyberbeing from the original Guardian Program, our heroes stream into cyberspace where they use their awesome code-based powers to battle viruses that have been unleashed by a ruthless hacker. Known only as the Sourcerer, he seeks to rule the world by controlling cyberspace.

IMDb: tt6849940
Tags: Science-Fiction, Action, Adventure, Comedy

compressed XviD-AFG files using "Any Video Converter" v 3.2.3

Video Information:
General
Format                                   : AVI
Format/Info                              : Audio Video Interleave
File size                                : 185 MiB
Duration                                 : 23 min 20 s
Overall bit rate mode                    : Variable
Overall bit rate                         : 1 108 kb/s
Writing application                      : MEncoder Sherpya-SVN-r32492-4.2.5
Writing library                          : MPlayer

Video
ID                                       : 0
Format                                   : MPEG-4 Visual
Format profile                           : Simple@L3
Format settings, BVOP                    : No
Format settings, QPel                    : No
Format settings, GMC                     : No warppoints
Format settings, Matrix                  : Default (H.263)
Codec ID                                 : XVID
Codec ID/Hint                            : XviD
Duration                                 : 23 min 20 s
Bit rate                                 : 975 kb/s
Width                                    : 640 pixels
Height                                   : 360 pixels
Display aspect ratio                     : 16:9
Frame rate                               : 24.000 FPS
Color space                              : YUV
Chroma subsampling                       : 4:2:0
Bit depth                                : 8 bits
Scan type                                : Progressive
Compression mode                         : Lossy
Bits/(Pixel*Frame)                       : 0.176
Stream size                              : 163 MiB (88%)
Writing library                          : XviD 1.2.1 (UTC 2008-12-04)

Audio
ID                                       : 1
Format                                   : MPEG Audio
Format version                           : Version 1
Format profile                           : Layer 3
Format settings                          : Joint stereo / MS Stereo
Codec ID                                 : 55
Codec ID/Hint                            : MP3
Duration                                 : 23 min 20 s
Bit rate mode                            : Variable
Bit rate                                 : 120 kb/s
Channel(s)                               : 2 channels
Sampling rate                            : 44.1 kHz
Compression mode                         : Lossy
Stream size                              : 20.1 MiB (11%)
Alignment                                : Aligned on interleaves
Interleave, duration                     : 26  ms (0.63 video frame)
Interleave, preload duration             : 138  ms
Writing library                          : LAME3.98.4